量子界 - 超清电影网|1080P|720P|BD1280|国语|粤语|中英字幕|百度云网盘
9.2

星际穿越 高清 蓝光 Interstellar RSS

星际穿越 高清 蓝光 Interstellar在线观看
我也要给这影片打分:
很差
一般
还行
很好
力荐
9.2

主演:马修·麦康纳 安妮·海瑟薇 杰西卡·查斯坦 迈克尔·凯恩

状态:高清蓝光1080P

地区:美国
导演:克里斯托弗·诺兰

年代:2014
类型: 高清新片

分享:量子界
时间:2015-03-15 09:51:42

说明:如本片还没有提供迅雷下载、旋风下载或百度云网盘链接,请点击这里留言(有求必应),我们稍后给您添加!

百度影音

下载地址(分享QQ群:391612010、450328704、173687296)

    星际穿越 Interstellar 1080p BluRay (蓝光超清RARBG版本)

    【影片信息】

    ◎译  名 星际穿越/星际空间/星际效应(台)/星际启示录(港) 
    ◎片  名 Interstellar/Untitled Steven Spielberg Space Project/Flora's Letter
    ◎年  代 2014
    ◎国  家 美国/英国 
    ◎类  别 冒险/科幻
    ◎语  言 英语
    ◎字  幕 英文
    ◎IMDB评分 8.8/10 from 478,758 users
    ◎片  长 2h 49mn 
    ◎导  演 克里斯托弗·诺兰 Christopher Nolan
    ◎主  演 马修·麦康纳 Matthew McConaughey ...库珀 Cooper
          安妮·海瑟薇 Anne Hathaway ...艾米莉亚·布兰德 Brand
          杰西卡·查斯坦 Jessica Chastain ...墨菲(成年) Murphy
          迈克尔·凯恩 Michael Caine ...布兰德教授,艾米莉亚的父亲 
          麦肯芝·弗依 Mackenzie Foy ...墨菲(少女) Murphy
          比尔·埃尔文 Bill Irwin ...机器人TARS(配音) TARS (voice)
          艾伦·波斯蒂恩 Ellen Burstyn ...墨菲(老年)
          大卫·吉亚斯 David Gyasi 罗米 ...Romilly
          韦斯·本特利 Wes Bentley ...多伊尔 Doyle

    获奖记录

    奥斯卡金像奖(2015;第87届) 

    获奖
    ·奥斯卡奖-最佳视觉效果 Scott R. Fisher  保罗·J·富兰克林 Paul J. Franklin   Ian Hunter  安德鲁·洛克利 Andrew Lockley  

    提名
    ·奥斯卡奖-最佳音响效果 Gregg Landaker    Gary Rizzo   Mark Weingarten  
    ·奥斯卡奖-最佳音效剪辑理查德·金 Richard King  
    ·奥斯卡奖-最佳原创配乐汉斯·季默 Hans Zimmer  
    ·奥斯卡奖-最佳艺术指导内森·克劳利 Nathan Crowley  盖瑞·费蒂丝 Gary Fettis  

    美国金球奖(2015;第72届) 
    提名
    ·电影类-最佳电影配乐汉斯·季默 Hans Zimmer  

    英国电影和电视艺术学院奖(2015;第68届) 

    获奖
    ·电影奖-最佳特殊视觉效果 Scott R. Fisher  保罗·J·富兰克林 Paul J. Franklin   Ian Hunter  安德鲁·洛克利 Andrew Lockley  

    提名
    ·电影奖-最佳摄影霍伊特·范·霍特玛 Hoyte Van Hoytema  
    ·电影奖-最佳原创音乐汉斯·季默 Hans Zimmer  
    ·电影奖-最佳艺术指导内森·克劳利 Nathan Crowley  盖瑞·费蒂丝 Gary Fettis



    【资源参数】

    Video
    ID                                       : 1
    Format                                   : AVC
    Format/Info                              : Advanced Video Codec
    Format profile                           : [email protected]
    Format settings, CABAC                   : Yes
    Format settings, ReFrames                : 4 frames
    Codec ID                                 : V_MPEG4/ISO/AVC
    Duration                                 : 2h 49mn
    Bit rate                                 : 11.5 Mbps
    Width                                    : 1 920 pixels
    Height                                   : 1 080 pixels
    Display aspect ratio                     : 16:9
    Frame rate mode                          : Constant
    Frame rate                               : 23.976 fps
    Color space                              : YUV
    Chroma subsampling                       : 4:2:0
    Bit depth                                : 8 bits
    Scan type                                : Progressive
    Bits/(Pixel*Frame)                       : 0.231
    Stream size                              : 13.1 GiB (86%)
    Title                                    : Interstellar.2014.1080p.BluRay.x264.DTS-RARBG
    Writing library                          : x264 core 144 r2525M 40bb568
    Encoding settings                        : cabac=1 / ref=4 / deblock=1:-2:-2 / analyse=0x3:0x113 / me=umh / subme=7 / psy=1 / psy_rd=1.00:0.15 / mixed_ref=1 / me_range=16 / chroma_me=1 / trellis=1 / 8x8dct=1 / cqm=0 / deadzone=21,11 / fast_pskip=1 / chroma_qp_offset=-3 / threads=40 / lookahead_threads=8 / sliced_threads=0 / nr=0 / decimate=1 / interlaced=0 / bluray_compat=0 / constrained_intra=0 / bframes=3 / b_pyramid=2 / b_adapt=2 / b_bias=0 / direct=3 / weightb=1 / open_gop=0 / weightp=2 / keyint=250 / keyint_min=25 / scenecut=40 / intra_refresh=0 / rc_lookahead=50 / rc=abr / mbtree=1 / bitrate=11500 / ratetol=1.0 / qcomp=0.60 / qpmin=0 / qpmax=69 / qpstep=4 / vbv_maxrate=31250 / vbv_bufsize=31250 / nal_hrd=none / filler=0 / ip_ratio=1.40 / aq=1:1.00
    Language                                 : English
    Default                                  : No
    Forced                                   : No

    Audio
    ID                                       : 2
    Format                                   : DTS
    Format/Info                              : Digital Theater Systems
    Mode                                     : 16
    Format settings, Endianness              : Big
    Codec ID                                 : A_DTS
    Duration                                 : 2h 49mn
    Bit rate mode                            : Constant
    Bit rate                                 : 1 509 Kbps
    Channel(s)                               : 6 channels
    Channel positions                        : Front: L C R, Side: L R, LFE
    Sampling rate                            : 48.0 KHz
    Bit depth                                : 24 bits
    Compression mode                         : Lossy
    Stream size                              : 1.78 GiB (12%)
    Title                                    : Interstellar.2014.1080p.BluRay.x264.DTS-RARBG
    Language                                 : English
    Default                                  : Yes
    Forced                                   : No

    Text
    ID                                       : 3
    Format                                   : UTF-8
    Codec ID                                 : S_TEXT/UTF8
    Codec ID/Info                            : UTF-8 Plain Text
    Language                                 : English
    Default                                  : No
    Forced                                   : No

    Menu
    00:00:00.000                             : :Chapter 01
    00:09:35.283                             : :Chapter 02
    00:17:12.281                             : :Chapter 03
    00:25:00.707                             : :Chapter 04
    00:35:45.101                             : :Chapter 05
    00:42:16.825                             : :Chapter 06
    00:50:19.558                             : :Chapter 07
    00:54:47.784                             : :Chapter 08
    00:58:59.369                             : :Chapter 09
    01:06:14.971                             : :Chapter 10
    01:17:28.018                             : :Chapter 11
    01:25:31.960                             : :Chapter 12
    01:34:31.957                             : :Chapter 13
    01:46:14.659                             : :Chapter 14
    01:55:34.510                             : :Chapter 15
    02:02:14.327                             : :Chapter 16
    02:12:56.802                             : :Chapter 17
    02:20:53.778                             : :Chapter 18
    02:35:12.052                             : :Chapter 19
    02:43:59.830                             : :Chapter 20

    【资源版本】

    1080p,蓝光,15.14G,2小时49分钟,RARBG

    【视频信息】

    编码:AVC/x264(高级视频编码)
    画质:1080p BluRay(1920x1080)
    格式:mkv

    【音频信息】

    编码:DTS(数字化影院系统)
    语言:英语(默认)

    【字幕信息】

    英文字幕(内封)、中文字幕(外挂)、中英字幕(外挂)

    【种子名称】

    Interstellar.2014.1080p.BluRay.x264.DTS-RARBG


      【百度网盘】(请下载后把文件的后缀名改为 “mp4“)


      稍后...

      【迅雷下载】

      星际穿越 高清 蓝光 Interstellar 1080P 迅雷下载

      【旋风下载】

      星际穿越 高清 蓝光 Interstellar 1080P 旋风下载

      【磁力链接】

      magnet:?xt=urn:btih:145A4A9DD65FC43369BBBF7F16DC21C58BDDEE61 


      【字幕下载】(中文字幕、中英字幕、英文字幕)

      请前往量子谷论坛下载字幕文件


      近未来的地球黄沙遍野,小麦、秋葵等基础农作物相继因枯萎病灭绝,人类不再像从前那样仰望星空,放纵想象力和灵感的迸发,而是每日在沙尘暴的肆虐下倒数着所剩不多的光景。在家务农的前NASA宇航员库珀(马修·麦康纳 Matthew McConaughey 饰)接连在女儿墨菲(麦肯吉·弗依 Mackenzie Foy 饰)的书房发现奇怪的重力场现象,随即得知在某个未知区域内前NASA成员仍秘密进行一个拯救人的计。多年以前土星附近出现神秘虫洞,NASA借机将数名宇航员派遣到遥远的星系寻找适合居住的星球。在布兰德教授(迈克尔·凯恩 Michael Caine 饰)的劝说下,库珀忍痛告别了女儿,和其他三名专家教授女儿艾米莉亚·布兰德(安妮·海瑟薇 Anne Hathaway 饰)、罗米利(大卫·吉雅西 David Gyasi 饰)、多伊尔(韦斯·本特利 Wes B... 

    特别鸣谢:量子电影网、飞鸟娱乐(WOFEI)、£CMCT、CnSCG、370看看、BT之家、百度影音、人人影视、迅播影院、悠悠鸟等网站,以及亲爱的量友们。

同类热播

网友评论