量子界 - 超清电影网|1080P|720P|BD1280|国语|粤语|中英字幕|百度云网盘
7.3

吾父吾血 Blood Father RSS

吾父吾血 Blood Father在线观看

百度影音

下载地址(分享QQ群:391612010、450328704、173687296)

    17岁的莉迪亚遭读贩头目男友害,背着盗|窃贩读集团财产的罪名开始了逃亡生涯。诺大的世界里,她只有一个同盟:约翰·林克,她的混账爸爸。年轻时,约翰是个蹲过监狱的非法摩托帮成员。而如今,他决心保护自己的小女孩,不让她受到一丝伤害。在他的一生中,他终于决定做一件正确的事……

    【下载地址】

    磁力链接(复制到BitTorrent、快车、旋风或迅雷等BT软件新建任务即可下载,也支持百度云等网盘离线下载)

    本帖隐藏的内容

    720P版 magnet:?xt=urn:btih:3114e3134c4cc2713fc053b998ec227961738004&dn=Blood.Father.2016.720p.WEB-DL.x264.DD5.1-iFT[EtHD]
    1080P版 magnet:?xt=urn:btih:1c74b4cde890fc95be77ac253297c45e50a05f98&dn=Blood.Father.2016.1080p.WEB-DL.DD5.1.H264-FGT

    百度网盘(请保存或下载后把文件的扩展名改为"mp4",如失效请用磁力链接或电驴链接自行离线到百度网盘)

    本帖隐藏的内容

    请自行用磁力链接离线到百度网盘!(一般12小时后可以秒离)


    量子谷铁粉QQ群:526027876
    (本群必须在字幕谷、量子谷两个论坛都注册帐号方可加入!)

    量子谷铁粉QQ群(禁言版):152467119
    (本群只有管理员不定期分享资源链接,其他群员一律禁言!)



    【字幕文件】

    吾父吾血 2016 中文字幕&中英字幕(校准WEB-DL版本)


    已经分享到字幕谷论坛!




    【资源参数】

    1. Blood.Father.2016.720p.WEB-DL.x264.DD5.1-iFT

    2. SiZE .........................: 2.41 GiB
    3. CONTAiNER ..............: AVC
    4. Length ....................: 1h 28mn
    5. Video ......................: 1280 x 528 (23.976 (24000/1001) fps)
    6. Bitrate ....................: 3520Kbps
    7. Audio ......................: AC-3 384 Kbps
    8. Language ................: English
    9. Subtitles ..................:
    10. Genre .......................: Action | Thriller

    11. Blood.Father.2016.1080p.WEB-DL.DD5.1.H264-FGT

    12. Video
    13. ID                                       : 1
    14. Format                                   : AVC
    15. Format/Info                              : Advanced Video Codec
    16. Format profile                           : [email protected]
    17. Format settings, CABAC                   : Yes
    18. Format settings, ReFrames                : 5 frames
    19. Codec ID                                 : V_MPEG4/ISO/AVC
    20. Duration                                 : 1h 28mn
    21. Bit rate                                 : 4 548 Kbps
    22. Width                                    : 1 912 pixels
    23. Height                                   : 792 pixels
    24. Display aspect ratio                     : 2.40:1
    25. Frame rate mode                          : Constant
    26. Frame rate                               : 23.976 (24000/1001) fps
    27. Color space                              : YUV
    28. Chroma subsampling                       : 4:2:0
    29. Bit depth                                : 8 bits
    30. Scan type                                : Progressive
    31. Bits/(Pixel*Frame)                       : 0.125
    32. Stream size                              : 2.80 GiB (90%)
    33. Title                                    : Blood.Father.2016.1080p.WEB-DL.DD5.1.H264-FGT
    34. Language                                 : English
    35. Default                                  : Yes
    36. Forced                                   : No
    37. Color range                              : Limited
    38. Color primaries                          : BT.709
    39. Transfer characteristics                 : BT.709
    40. Matrix coefficients                      : BT.709

    41. Audio
    42. ID                                       : 2
    43. Format                                   : AC-3
    44. Format/Info                              : Audio Coding 3
    45. Mode extension                           : CM (complete main)
    46. Format settings, Endianness              : Big
    47. Codec ID                                 : A_AC3
    48. Duration                                 : 1h 28mn
    49. Bit rate mode                            : Constant
    50. Bit rate                                 : 384 Kbps
    51. Channel(s)                               : 6 channels
    52. Channel positions                        : Front: L C R, Side: L R, LFE
    53. Sampling rate                            : 48.0 KHz
    54. Frame rate                               : 31.250 fps (1536 spf)
    55. Compression mode                         : Lossy
    56. Stream size                              : 242 MiB (8%)
    57. Title                                    : Blood.Father.2016.1080p.WEB-DL.DD5.1.H264-FGT
    58. Language                                 : English
    59. Default                                  : Yes
    60. Forced                                   : No

    61. Text
    62. ID                                       : 3
    63. Format                                   : UTF-8
    64. Codec ID                                 : S_TEXT/UTF8
    65. Codec ID/Info                            : UTF-8 Plain Text
    66. Language                                 : English
    67. Default                                  : Yes
    68. Forced                                   : No
    特别鸣谢:量子电影网、飞鸟娱乐(WOFEI)、£CMCT、CnSCG、370看看、BT之家、百度影音、人人影视、迅播影院、悠悠鸟等网站,以及亲爱的量友们。

同类热播

网友评论