量子界 - 超清电影网|1080P|720P|BD1280|国语|粤语|中英字幕|百度云网盘
6.1

丧尸新生代 Generation Z RSS

丧尸新生代 Generation Z在线观看
我也要给这影片打分:
很差
一般
还行
很好
力荐
6.1

主演:多格雷·斯科特 杰西卡·德·古维 马丁·麦凯恩

状态:超清

地区:美国
导演:史蒂夫·巴克

年代:2016
类型: 高清新片

分享:量子界
时间:2016-08-31 13:10:25

说明:如本片还没有提供迅雷下载、旋风下载或百度云网盘链接,请点击这里留言(有求必应),我们稍后给您添加!

百度影音

下载地址(分享QQ群:391612010、450328704、173687296)

    The ReZort, a post apocalyptic safari, offers paying guests the opportunity to kill zombies in the wake of an outbreak.


    【下载地址】(720p&1080p.BD.超清.小体积版本)


    磁力链接(复制到BitTorrent、快车、旋风或迅雷等BT软件新建任务即可下载,也支持百度云等网盘离线下载)

    本帖隐藏的内容

    720P版 magnet:?xt=urn:btih:d919f29c396cf9f2dc850db52f7215fcbe38e6dc&dn=The.Rezort.2015.720p.BRRip.XviD.AC3-RARBG
    1080P版 magnet:?xt=urn:btih:884b6804235b3e448858f484f1175de04a0a7868&dn=The.Rezort.2015.1080p.BluRay.H264.AAC-RARBG




    种子文件(支持BitComet、BitTorrent、uTorrent、迅雷、旋风、快车等所有BT软件,如打不开请多点击几次)

    本帖隐藏的内容

    720P版 链接: http://pan.baidu.com/s/1i5DGMSd 密码: ufgv
    1080P版 链接: http://pan.baidu.com/s/1slH4oLR 密码: 4dms




    百度网盘(请保存或下载后把文件的扩展名改为"mp4",如失效请用磁力链接或电驴链接自行离线到百度网盘)

    本帖隐藏的内容

    请自行用磁力链接离线到百度网盘!(一般12小时后可以秒离)

    量子谷铁粉QQ群:526027876
    (本群必须在字幕谷、量子谷两个论坛都注册帐号方可加入!)




    【资源参数】

    1. The.Rezort.2015.1080p.BluRay.H264.AAC-RARBG

    2. Video
    3. ID                                       : 1
    4. Format                                   : AVC
    5. Format/Info                              : Advanced Video Codec
    6. Format profile                           : [email protected]
    7. Format settings, CABAC                   : Yes
    8. Format settings, ReFrames                : 4 frames
    9. Codec ID                                 : avc1
    10. Codec ID/Info                            : Advanced Video Coding
    11. Duration                                 : 1h 30mn
    12. Bit rate                                 : 2 500 Kbps
    13. Width                                    : 1 920 pixels
    14. Height                                   : 808 pixels
    15. Display aspect ratio                     : 2.40:1
    16. Frame rate mode                          : Constant
    17. Frame rate                               : 24.000 fps
    18. Color space                              : YUV
    19. Chroma subsampling                       : 4:2:0
    20. Bit depth                                : 8 bits
    21. Scan type                                : Progressive
    22. Bits/(Pixel*Frame)                       : 0.067
    23. Stream size                              : 1.58 GiB (92%)
    24. Writing library                          : x264 core 148 r2597M e86f3a1
    25. Encoding settings                        : cabac=1 / ref=4 / deblock=1:-1:-1 / analyse=0x3:0x113 / me=umh / subme=9 / psy=1 / psy_rd=1.00:0.15 / mixed_ref=1 / me_range=24 / chroma_me=1 / trellis=2 / 8x8dct=1 / cqm=0 / deadzone=21,11 / fast_pskip=1 / chroma_qp_offset=-3 / threads=32 / lookahead_threads=4 / sliced_threads=0 / nr=0 / decimate=1 / interlaced=0 / bluray_compat=0 / constrained_intra=0 / bframes=3 / b_pyramid=2 / b_adapt=2 / b_bias=0 / direct=3 / weightb=1 / open_gop=0 / weightp=2 / keyint=250 / keyint_min=25 / scenecut=40 / intra_refresh=0 / rc_lookahead=50 / rc=2pass / mbtree=1 / bitrate=2500 / ratetol=1.0 / qcomp=0.60 / qpmin=0 / qpmax=69 / qpstep=4 / cplxblur=20.0 / qblur=0.5 / vbv_maxrate=31250 / vbv_bufsize=31250 / nal_hrd=none / filler=0 / ip_ratio=1.40 / aq=3:1.00
    26. Encoded date                             : UTC 2016-08-30 18:23:19
    27. Tagged date                              : UTC 2016-08-30 18:23:19

    28. Audio
    29. ID                                       : 2
    30. Format                                   : AAC
    31. Format/Info                              : Advanced Audio Codec
    32. Format profile                           : LC
    33. Codec ID                                 : 40
    34. Duration                                 : 1h 30mn
    35. Bit rate mode                            : Constant
    36. Bit rate                                 : 224 Kbps
    37. Channel(s)                               : 2 channels
    38. Channel(s)_Original                      : 6 channels
    39. Channel positions                        : Front: L C R, Side: L R, LFE
    40. Sampling rate                            : 48.0 KHz
    41. Frame rate                               : 46.875 fps (1024 spf)
    42. Compression mode                         : Lossy
    43. Stream size                              : 145 MiB (8%)
    44. Language                                 : English
    45. Default                                  : Yes
    46. Alternate group                          : 1
    47. Encoded date                             : UTC 2016-08-30 18:23:19
    48. Tagged date                              : UTC 2016-08-30 18:23:19
    特别鸣谢:量子电影网、飞鸟娱乐(WOFEI)、£CMCT、CnSCG、370看看、BT之家、百度影音、人人影视、迅播影院、悠悠鸟等网站,以及亲爱的量友们。

同类热播

网友评论