量子界 - 超清电影网|1080P|720P|BD1280|国语|粤语|中英字幕|百度云网盘
6.1

边境惊魂 Transpecos RSS

边境惊魂 Transpecos在线观看
我也要给这影片打分:
很差
一般
还行
很好
力荐
6.1

主演:约翰尼·西蒙斯 加布里埃尔·鲁纳 小克利夫顿·克林斯 大卫·阿克德 威尔·布里顿 亚历山大·奈特 杰克·洛克特 阿尔玛·马丁内兹

状态:超清

地区:美国
导演:Greg Kwedar

年代:2016
类型: 高清新片

分享:量子界
时间:2016-09-09 22:02:31

说明:如本片还没有提供迅雷下载、旋风下载或百度云网盘链接,请点击这里留言(有求必应),我们稍后给您添加!

百度影音

下载地址(分享QQ群:391612010、450328704、173687296)

      For three Border Patrol agents working a remote desert checkpoint, the contents of one car will reveal an insidious plot within their own ranks. The next 24 hours will take them on a treacherous journey that could cost them their lives.

    【下载地址】

    磁力链接(复制到BitTorrent、快车、旋风或迅雷等BT软件新建任务即可下载,也支持百度云等网盘离线下载)

    本帖隐藏的内容

    magnet:?xt=urn:btih:29e8bbc9d8ec273a190a38ddc9bc57569d7f44ef&dn=Transpecos.2016.1080p.WEB-DL.DD5.1.H264-FGT


    百度网盘(请保存或下载后把文件的扩展名改为"mp4",如失效请用磁力链接或电驴链接自行离线到百度网盘)

    本帖隐藏的内容

    请自行用磁力链接离线到百度网盘!(一般12小时后可以秒离)

    量子谷铁粉QQ群:526027876
    (本群必须在字幕谷、量子谷两个论坛都注册帐号方可加入!)

    量子谷铁粉QQ群(禁言版):152467119
    (本群只有管理员不定期分享资源链接,其他群员一律禁言!)



    【字幕文件】

    边境惊魂 Transpecos 中文字幕&中英字幕(校准WEB-DL版本)

    已经分享到 字幕谷 论坛,欢迎前往下载!




    【资源参数】

    1. Video
    2. ID                                       : 1
    3. Format                                   : AVC
    4. Format/Info                              : Advanced Video Codec
    5. Format profile                           : [email protected]
    6. Format settings, CABAC                   : Yes
    7. Format settings, ReFrames                : 5 frames
    8. Codec ID                                 : V_MPEG4/ISO/AVC
    9. Duration                                 : 1h 25mn
    10. Bit rate                                 : 4 439 Kbps
    11. Width                                    : 1 920 pixels
    12. Height                                   : 792 pixels
    13. Display aspect ratio                     : 2.40:1
    14. Frame rate mode                          : Constant
    15. Frame rate                               : 23.976 fps
    16. Color space                              : YUV
    17. Chroma subsampling                       : 4:2:0
    18. Bit depth                                : 8 bits
    19. Scan type                                : Progressive
    20. Bits/(Pixel*Frame)                       : 0.122
    21. Stream size                              : 2.65 GiB (90%)
    22. Title                                    : Transpecos.2016.1080p.WEB-DL.DD5.1.H264-FGT
    23. Language                                 : English
    24. Default                                  : Yes
    25. Forced                                   : No
    26. Color range                              : Limited
    27. Color primaries                          : BT.709
    28. Transfer characteristics                 : BT.709
    29. Matrix coefficients                      : BT.709

    30. Audio
    31. ID                                       : 2
    32. Format                                   : AC-3
    33. Format/Info                              : Audio Coding 3
    34. Mode extension                           : CM (complete main)
    35. Format settings, Endianness              : Big
    36. Codec ID                                 : A_AC3
    37. Duration                                 : 1h 25mn
    38. Bit rate mode                            : Constant
    39. Bit rate                                 : 384 Kbps
    40. Channel(s)                               : 6 channels
    41. Channel positions                        : Front: L C R, Side: L R, LFE
    42. Sampling rate                            : 48.0 KHz
    43. Frame rate                               : 31.250 fps (1536 spf)
    44. Compression mode                         : Lossy
    45. Stream size                              : 235 MiB (8%)
    46. Title                                    : Transpecos.2016.1080p.WEB-DL.DD5.1.H264-FGT
    47. Language                                 : English
    48. Default                                  : Yes
    49. Forced                                   : No

    50. Text
    51. ID                                       : 3
    52. Format                                   : UTF-8
    53. Codec ID                                 : S_TEXT/UTF8
    54. Codec ID/Info                            : UTF-8 Plain Text
    55. Language                                 : English
    56. Default                                  : Yes
    57. Forced                                   : No
    特别鸣谢:量子电影网、飞鸟娱乐(WOFEI)、£CMCT、CnSCG、370看看、BT之家、百度影音、人人影视、迅播影院、悠悠鸟等网站,以及亲爱的量友们。

同类热播

网友评论