量子界 - 超清电影网|1080P|720P|BD1280|国语|粤语|中英字幕|百度云网盘
6.6

瓦尔基里行动 RSS

瓦尔基里行动 在线观看
我也要给这影片打分:
很差
一般
还行
很好
力荐
6.6

主演:肖恩·派特里克·弗兰纳里 汤姆·塞兹摩尔 琦普·帕杜

状态:超清

地区:美国
导演:Claudio Fäh

年代:2016
类型: 高清新片

分享:量子界
时间:2016-09-19 13:08:13

说明:如本片还没有提供迅雷下载、旋风下载或百度云网盘链接,请点击这里留言(有求必应),我们稍后给您添加!

百度影音

下载地址(分享QQ群:391612010、450328704、173687296)

      Near the end of World War II, American and British Special Forces must extract a resistance fighter behind Nazi lines.


    【下载地址】


    磁力链接(复制到BitTorrent、快车、旋风或迅雷等BT软件新建任务即可下载,也支持百度云等网盘离线下载)

    本帖隐藏的内容

    magnet:?xt=urn:btih:fce45f893e1cce32949fe93d98903fef51fca793&dn=Beyond.Valkyrie.Dawn.of.the.Fourth.Reich.2016.DVDRip.XviD.AC3-EVO
    或 magnet:?xt=urn:btih:1ac68795afd41ad3ddafada1e33a15f97b4bb3ab&dn=Beyond.Valkyrie.Dawn.of.the.Fourth.Reich.2016.DVDRip.XviD.AC3-EVO



    种子文件(支持BitComet、BitTorrent、uTorrent、迅雷、旋风、快车等所有BT软件,如打不开请多点击几次)

    本帖隐藏的内容

    链接: https://pan.baidu.com/s/1nuQk7fr 密码: 5j4k
    或 链接: https://pan.baidu.com/s/1skOG2Qx 密码: rwmx


    【资源参数】

    1. Video
    2. ID                                       : 0
    3. Format                                   : MPEG-4 Visual
    4. Format profile                           : [email protected]
    5. Format settings, BVOP                    : No
    6. Format settings, QPel                    : No
    7. Format settings, GMC                     : No warppoints
    8. Format settings, Matrix                  : Default (H.263)
    9. Codec ID                                 : XVID
    10. Codec ID/Hint                            : XviD
    11. Duration                                 : 1h 40mn
    12. Source duration                          : 1h 40mn
    13. Bit rate                                 : 1 524 Kbps
    14. Width                                    : 720 pixels
    15. Height                                   : 400 pixels
    16. Display aspect ratio                     : 16:9
    17. Frame rate                               : 23.976 (24000/1001) fps
    18. Color space                              : YUV
    19. Chroma subsampling                       : 4:2:0
    20. Bit depth                                : 8 bits
    21. Scan type                                : Progressive
    22. Compression mode                         : Lossy
    23. Bits/(Pixel*Frame)                       : 0.221
    24. Stream size                              : 1.07 GiB (77%)
    25. Writing library                          : XviD 1.1.2 (UTC 2006-11-01)

    26. Audio
    27. ID                                       : 1
    28. Format                                   : AC-3
    29. Format/Info                              : Audio Coding 3
    30. Mode extension                           : CM (complete main)
    31. Format settings, Endianness              : Big
    32. Codec ID                                 : 2000
    33. Duration                                 : 1h 40mn
    34. Bit rate mode                            : Constant
    35. Bit rate                                 : 448 Kbps
    36. Channel(s)                               : 6 channels
    37. Channel positions                        : Front: L C R, Side: L R, LFE
    38. Sampling rate                            : 48.0 KHz
    39. Frame rate                               : 31.250 fps (1536 spf)
    40. Compression mode                         : Lossy
    41. Stream size                              : 322 MiB (23%)
    42. Alignment                                : Aligned on interleaves
    43. Interleave, duration                     : 32 ms (0.77 video frame)
    特别鸣谢:量子电影网、飞鸟娱乐(WOFEI)、£CMCT、CnSCG、370看看、BT之家、百度影音、人人影视、迅播影院、悠悠鸟等网站,以及亲爱的量友们。

同类热播

网友评论