量子界 - 超清电影网|1080P|720P|BD1280|国语|粤语|中英字幕|百度云网盘
7.0

超时空传输 ARQ RSS

超时空传输 ARQ在线观看
我也要给这影片打分:
很差
一般
还行
很好
力荐
7.0

主演:罗比·阿美尔 瑞切尔·泰勒 肖恩·本森 亚当·布切

状态:超清

地区:美国
导演:Tony Elliott

年代:2016
类型: 高清新片

分享:量子界
时间:2016-09-20 09:02:03

说明:如本片还没有提供迅雷下载、旋风下载或百度云网盘链接,请点击这里留言(有求必应),我们稍后给您添加!

百度影音

下载地址(分享QQ群:391612010、450328704、173687296)

    Trapped in a lab and stuck in a time loop,a disoriented couple fends off masked raiders while harboring a new energy source that could save humanity.被困在一个时间循环的实验室中,同时又有新的能源,可以拯救人类的晕头转向的一对夫妇闪避掉蒙面袭击者。

    【下载地址】

    磁力链接(复制到BitTorrent、快车、旋风或迅雷等BT软件新建任务即可下载,也支持百度云等网盘离线下载)

    本帖隐藏的内容

    magnet:?xt=urn:btih:e854b6ab096b783b14be1c65d6083a94e2bd76ea&dn=ARQ.2016.1080p.WEBRip.x264-SKGTV
    或 magnet:?xt=urn:btih:d00d6f51775576bc1def45498239aa2c4cb7fc49&dn=ARQ.2016.1080p.WEBRip.x264-SKGTV


    【字幕文件】

    超时空传输 中文字幕(校准WEB-DL版本)

    已经分享到字幕谷论坛,欢迎前往下载!




    【资源参数】

    1. ARQ.2016.1080p.WEBRip.x264-SKGTV

    2. Video
    3. ID                                       : 1
    4. Format                                   : AVC
    5. Format/Info                              : Advanced Video Codec
    6. Format profile                           : [email protected]
    7. Format settings, CABAC                   : Yes
    8. Format settings, ReFrames                : 4 frames
    9. Codec ID                                 : V_MPEG4/ISO/AVC
    10. Duration                                 : 1h 27mn
    11. Bit rate                                 : 5 861 Kbps
    12. Width                                    : 1 920 pixels
    13. Height                                   : 800 pixels
    14. Display aspect ratio                     : 2.40:1
    15. Frame rate mode                          : Constant
    16. Frame rate                               : 23.976 (24000/1001) fps
    17. Color space                              : YUV
    18. Chroma subsampling                       : 4:2:0
    19. Bit depth                                : 8 bits
    20. Scan type                                : Progressive
    21. Bits/(Pixel*Frame)                       : 0.159
    22. Stream size                              : 3.59 GiB (90%)
    23. Writing library                          : x264 core 148 r2705 3f5ed56
    24. Encoding settings                        : cabac=1 / ref=4 / deblock=1:-3:-3 / analyse=0x3:0x113 / me=umh / subme=8 / psy=1 / psy_rd=1.00:0.00 / mixed_ref=1 / me_range=16 / chroma_me=1 / trellis=1 / 8x8dct=1 / cqm=0 / deadzone=21,11 / fast_pskip=1 / chroma_qp_offset=-2 / threads=15 / lookahead_threads=2 / sliced_threads=0 / nr=0 / decimate=1 / interlaced=0 / bluray_compat=0 / constrained_intra=0 / bframes=3 / b_pyramid=2 / b_adapt=2 / b_bias=0 / direct=3 / weightb=1 / open_gop=0 / weightp=2 / keyint=250 / keyint_min=23 / scenecut=40 / intra_refresh=0 / rc_lookahead=50 / rc=crf / mbtree=1 / crf=17.0 / qcomp=0.60 / qpmin=0 / qpmax=69 / qpstep=4 / ip_ratio=1.40 / aq=1:1.00
    25. Language                                 : English
    26. Default                                  : Yes
    27. Forced                                   : No
    28. Color range                              : Limited
    29. Matrix coefficients                      : BT.709

    30. Audio
    31. ID                                       : 2
    32. Format                                   : AC-3
    33. Format/Info                              : Audio Coding 3
    34. Mode extension                           : CM (complete main)
    35. Format settings, Endianness              : Big
    36. Codec ID                                 : A_AC3
    37. Duration                                 : 1h 27mn
    38. Bit rate mode                            : Constant
    39. Bit rate                                 : 640 Kbps
    40. Channel(s)                               : 6 channels
    41. Channel positions                        : Front: L C R, Side: L R, LFE
    42. Sampling rate                            : 48.0 KHz
    43. Frame rate                               : 31.250 fps (1536 spf)
    44. Compression mode                         : Lossy
    45. Stream size                              : 402 MiB (10%)
    46. Language                                 : English
    47. Default                                  : Yes
    48. Forced                                   : No
    特别鸣谢:量子电影网、飞鸟娱乐(WOFEI)、£CMCT、CnSCG、370看看、BT之家、百度影音、人人影视、迅播影院、悠悠鸟等网站,以及亲爱的量友们。

同类热播

网友评论